<?xml version="1.0" standalone="no"?>
<!DOCTYPE svg PUBLIC "-//W3C//DTD SVG 1.1//EN" "http://www.w3.org/Graphics/SVG/1.1/DTD/svg11.dtd">
<svg xmlns="http://www.w3.org/2000/svg">
<defs >
<font id="Nunito" horiz-adv-x="589" ><font-face
    font-family="Nunito SemiBold"
    units-per-em="1000"
    panose-1="0 0 0 0 0 0 0 0 0 0"
    ascent="1011"
    descent="-353"
    alphabetic="0" />
<glyph unicode=" " glyph-name="space" horiz-adv-x="264" />
<glyph unicode="!" glyph-name="exclam" horiz-adv-x="237" d="M120 190Q87 190 85 228L61 646Q59 676 74 694T120 712Q149 712 164 694T176 646L152 228Q150 190 120 190ZM120 -4Q90 -4 73 14T55 60Q55 88 72 105T120 123Q149 123 166 106T183 60Q183 32 166 14T120 -4Z" />
<glyph unicode="&quot;" glyph-name="quotedbl" horiz-adv-x="417" d="M116 415Q102 415 91 425T78 454L62 653Q59 678 75 695T116 712Q141 712 156 696T169 653L153 454Q152 435 142 425T116 415ZM302 415Q288 415 277 425T264 454L248 653Q245 678 261 695T302
712Q327 712 342 696T355 653L339 454Q338 435 328 425T302 415Z" />
<glyph unicode="#" glyph-name="numbersign" horiz-adv-x="600" d="M123 -7Q103 -7 96 5T93 37L119 177H77Q36 177 36 212Q36 246 77 246H132L176 467H97Q56 467 56 502Q56 536 97 536H188L216 676Q223 712 259 712Q296 712 288 668L262 536H406L434 676Q441 712
477 712Q514 712 506 668L480 536H523Q564 536 564 502Q564 467 523 467H467L424 246H503Q544 246 544 212Q544 177 503 177H412L382 29Q375 -7 340 -7Q322 -7 314 4T310 37L338 177H194L165 29Q158 -7 123 -7ZM207 246H350L393 467H250L207 246Z" />
<glyph unicode="$" glyph-name="dollar" horiz-adv-x="600" d="M310 -122Q292 -122 281 -110T269 -81V-5Q206 -1 155 15T69 56Q51 67 47 85T49 120T72 142T109 135Q140 115 186 99T300 83Q381 83 418 113T456 191Q456 230 429 253T338 291L235 313Q55 352 55 500Q55
557 81 601T156 673T269 708V786Q269 803 280 815T310 827Q327 827 339 815T351 786V708Q394 704 440 687T521 641Q536 628 538 612T532 583T508 565T471 574Q439 596 401 609T309 622Q239 622 198 589T157 503Q157 463 182 439T266 401L371 379Q468 358 513 314T559
197Q559 114 501 62T351 -2V-81Q351 -98 340 -110T310 -122Z" />
<glyph unicode="%" glyph-name="percent" horiz-adv-x="937" d="M313 3Q302 -16 287 -19T258 -15T239 8T245 43L623 700Q634 719 649 722T678 718T697 695T691 661L313 3ZM224 283Q142 283 96 340T50 499Q50 600 96 657T224 714Q305 714 351 657T398 499Q398 398
352 341T224 283ZM224 354Q266 354 289 390T313 499Q313 572 290 608T224 644Q182 644 159 608T135 499Q135 425 158 390T224 354ZM713 -9Q632 -9 586 48T540 207Q540 307 586 364T713 422Q795 422 841 365T887 207Q887 105 841 48T713 -9ZM713 61Q755 61 778 97T802
207Q802 279 779 315T713 351Q671 351 648 316T624 207Q624 133 647 97T713 61Z" />
<glyph unicode="&amp;" glyph-name="ampersand" horiz-adv-x="708" d="M293 -9Q184 -9 122 41T60 174Q60 242 97 292T205 386L217 393Q174 438 157 475T139 553Q139 625 189 669T322 714Q397 714 443 674T489 566Q489 514 459 470T353 378L504 212Q538 281 548
383Q554 425 593 425Q638 425 633 378Q627 310 609 253T564 151L651 59Q674 36 663 15T622 -7Q604 -7 593 -1T568 20L510 83Q468 39 412 15T293 -9ZM322 640Q282 640 258 617T233 555Q233 526 246 502T297 436Q355 472 379 500T403 562Q403 599 381 619T322 640ZM298
72Q392 72 453 141L272 334L266 330Q208 293 184 261T160 182Q160 130 195 101T298 72Z" />
<glyph unicode="&apos;" glyph-name="quotesingle" horiz-adv-x="231" d="M116 415Q102 415 91 425T78 454L62 653Q59 678 75 695T116 712Q141 712 156 696T169 653L153 454Q152 435 142 425T116 415Z" />
<glyph unicode="(" glyph-name="parenleft" horiz-adv-x="336" d="M213 -166Q154 -66 128 43T101 263Q101 374 128 482T213 692Q222 707 237 711T266 709T286 688T285 650Q246 552 228 458T209 263Q209 163 228 69T285 -124Q293 -147 287 -162T266 -183T237 -185T213
-166Z" />
<glyph unicode=")" glyph-name="parenright" horiz-adv-x="336" d="M123 -166Q114 -181 99 -185T70 -183T49 -162T51 -124Q90 -26 108 68T127 263Q127 363 107 457T51 650Q43 673 49 688T70 709T99 711T123 692Q181 592 208 483T235 263Q235 152 208 43T123 -166Z" />
<glyph unicode="*" glyph-name="asterisk" horiz-adv-x="452" d="M127 363Q95 383 118 419L172 502L75 498Q55 496 43 505T31 532Q31 549 43 558T75 566L172 561L119 645Q96 682 128 700Q142 709 156 703T180 677L226 586L272 677Q281 696 295 702T325 700Q356
681 332 644L279 561L376 566Q397 567 409 558T421 532Q421 514 409 505T376 498L279 502L332 419Q343 402 342 388T325 364Q309 355 295 361T272 386L226 478L179 386Q170 368 156 361T127 363Z" />
<glyph unicode="+" glyph-name="plus" horiz-adv-x="600" d="M300 33Q262 33 262 72V250H87Q49 250 49 287Q49 324 87 324H262V497Q262 535 300 535Q338 535 338 497V324H513Q551 324 551 287Q551 250 513 250H338V72Q338 33 300 33Z" />
<glyph unicode="," glyph-name="comma" horiz-adv-x="237" d="M131 -101Q116 -119 100 -117T77 -101T87 -65Q99 -50 105 -35T115 -4Q88 -2 72 15T55 60Q55 88 72 105T118 123Q148 123 165 103T183 44Q183 11 173 -26T131 -101Z" />
<glyph unicode="-" glyph-name="hyphen" horiz-adv-x="429" d="M105 226Q87 226 75 238T63 267Q63 285 75 296T105 308H325Q342 308 354 297T366 267Q366 250 354 238T325 226H105Z" />
<glyph unicode="." glyph-name="period" horiz-adv-x="237" d="M120 -4Q90 -4 73 14T55 60Q55 88 72 105T120 123Q149 123 166 106T183 60Q183 32 166 14T120 -4Z" />
<glyph unicode="/" glyph-name="slash" horiz-adv-x="297" d="M70 -32Q63 -52 49 -58T19 -61T-5 -43T-8 -8L227 720Q233 740 248 746T278 749T302 731T305 697L70 -32Z" />
<glyph unicode="0" glyph-name="zero" horiz-adv-x="600" d="M300 -9Q177 -9 113 84T48 353Q48 531 112 622T300 714Q424 714 488 623T552 354Q552 178 488 85T300 -9ZM300 77Q376 77 413 144T450 354Q450 497 414 562T300 628Q224 628 187 562T150 354Q150 212
187 145T300 77Z" />
<glyph unicode="1" glyph-name="one" horiz-adv-x="600" d="M155 0Q110 0 110 44Q110 87 155 87H277V586L183 526Q164 514 148 519T123 540T117 572T140 602L278 689Q295 699 310 705T340 712Q357 712 368 702T380 671V87H492Q538 87 538 44Q538 0 492 0H155Z" />
<glyph unicode="2" glyph-name="two" horiz-adv-x="600" d="M131 0Q80 0 80 47Q80 72 107 101L320 329Q369 381 390 424T412 512Q412 626 278 626Q238 626 201 614T127 575Q109 562 94 566T70 586T63 618T84 649Q125 680 179 697T289 714Q398 714 456 664T515
521Q515 458 485 398T389 270L214 87H505Q551 87 551 44Q551 0 505 0H131Z" />
<glyph unicode="3" glyph-name="three" horiz-adv-x="600" d="M289 -9Q233 -9 175 6T74 53Q54 66 50 84T54 116T79 136T117 128Q160 102 201 91T286 79Q358 79 395 110T433 199Q433 257 396 285T287 313H219Q172 313 172 357Q172 400 219 400H277Q340 400 376
432T413 520Q413 571 379 598T282 626Q240 626 204 615T129 576Q110 564 94 568T70 587T64 619T86 650Q128 681 180 697T290 714Q396 714 455 666T514 531Q514 473 485 429T403 365Q466 349 500 304T534 192Q534 99 469 45T289 -9Z" />
<glyph unicode="4" glyph-name="four" horiz-adv-x="600" d="M416 -7Q392 -7 378 6T364 44V143H96Q71 143 56 154T41 187Q41 201 48 216T71 255L362 678Q373 695 387 703T419 712Q440 712 453 700T467 661V230H530Q577 230 577 187Q577 143 530 143H467V44Q467
-7 416 -7ZM364 230V544L149 230H364Z" />
<glyph unicode="5" glyph-name="five" horiz-adv-x="600" d="M311 -9Q255 -9 200 6T98 55Q79 67 76 85T80 117T105 137T142 130Q219 79 309 79Q378 79 417 116T456 215Q456 278 419 318T316 358Q278 358 245 345T182 300Q174 292 163 286T138 279Q95 279 95 320V659Q95
705 141 705H476Q522 705 522 662Q522 618 476 618H196V395Q252 444 338 444Q405 444 454 416T530 338T557 220Q557 152 527 101T442 20T311 -9Z" />
<glyph unicode="6" glyph-name="six" horiz-adv-x="600" d="M325 -9Q197 -9 128 82T58 337Q58 518 136 616T352 714Q396 714 443 699T530 652Q546 641 548 624T542 592T519 572T484 580Q450 605 417 615T350 626Q257 626 208 559T158 357V317Q178 378 227 412T342
447Q404 447 451 418T526 339T553 223Q553 155 524 103T444 21T325 -9ZM319 75Q380 75 418 115T456 219Q456 283 418 323T319 363Q258 363 220 323T182 219Q182 155 220 115T319 75Z" />
<glyph unicode="7" glyph-name="seven" horiz-adv-x="600" d="M170 -7Q142 -7 130 12T131 60L423 618H100Q54 618 54 661Q54 705 100 705H493Q515 705 528 694T542 661Q542 643 538 630T525 601L228 27Q211 -7 170 -7Z" />
<glyph unicode="8" glyph-name="eight" horiz-adv-x="600" d="M300 -9Q179 -9 112 43T44 188Q44 253 78 298T169 361Q119 382 90 425T61 526Q61 614 126 664T300 714Q410 714 475 664T540 526Q540 469 511 425T431 361Q488 344 522 299T556 188Q556 95 489 43T300
-9ZM300 398Q367 398 404 429T442 516Q442 570 405 601T300 632Q233 632 196 601T159 516Q159 461 196 430T300 398ZM300 73Q459 73 459 195Q459 316 300 316Q222 316 182 286T141 195Q141 73 300 73Z" />
<glyph unicode="9" glyph-name="nine" horiz-adv-x="600" d="M248 -9Q204 -9 157 7T70 53Q54 65 52 82T58 113T81 133T116 126Q150 101 183 90T250 79Q343 79 392 146T442 348V388Q422 327 373 293T258 258Q196 258 149 287T74 366T47 482Q47 550 76 602T156 684T275
714Q403 714 472 623T542 368Q542 187 464 89T248 -9ZM282 343Q343 343 381 383T419 487Q419 551 381 591T282 631Q221 631 183 591T145 487Q145 423 183 383T282 343Z" />
<glyph unicode=":" glyph-name="colon" horiz-adv-x="237" d="M120 365Q90 365 73 383T55 428Q55 457 72 474T120 492Q149 492 166 475T183 428Q183 401 166 383T120 365ZM120 -4Q90 -4 73 14T55 60Q55 88 72 105T120 123Q149 123 166 106T183 60Q183 32 166 14T120 -4Z" />
<glyph unicode=";" glyph-name="semicolon" horiz-adv-x="237" d="M120 365Q90 365 73 383T55 428Q55 457 72 474T120 492Q149 492 166 475T183 428Q183 401 166 383T120 365ZM131 -101Q116 -119 100 -117T77 -101T87 -65Q99 -50 105 -35T115 -4Q88 -2 72 15T55
60Q55 88 72 105T118 123Q148 123 165 103T183 44Q183 11 173 -26T131 -101Z" />
<glyph unicode="&lt;" glyph-name="less" horiz-adv-x="600" d="M506 51L92 233Q53 249 53 288Q53 325 92 341L506 524Q524 532 537 525T555 504T556 476T533 454L149 287L533 120Q551 112 555 98T555 70T537 50T506 51Z" />
<glyph unicode="=" glyph-name="equal" horiz-adv-x="600" d="M87 350Q49 350 49 387Q49 424 87 424H513Q551 424 551 387Q551 350 513 350H87ZM87 151Q49 151 49 188Q49 224 87 224H513Q551 224 551 188Q551 151 513 151H87Z" />
<glyph unicode="&gt;" glyph-name="greater" horiz-adv-x="600" d="M95 51Q77 43 64 49T46 70T45 98T67 120L452 287L67 454Q50 462 45 476T45 504T64 525T95 524L509 341Q548 325 548 288Q548 249 509 233L95 51Z" />
<glyph unicode="?" glyph-name="question" horiz-adv-x="450" d="M215 191Q182 191 182 229Q182 278 200 320T264 415Q299 455 313 483T327 544Q327 582 300 604T224 626Q181 626 145 614T75 578Q52 564 35 568T10 586T6 619T33 653Q73 682 126 698T230 714Q320
714 375 670T430 553Q430 506 410 466T338 375Q291 328 272 294T249 220Q246 191 215 191ZM214 -4Q184 -4 167 14T149 60Q149 88 166 105T214 123Q243 123 260 106T277 60Q277 32 260 14T214 -4Z" />
<glyph unicode="@" glyph-name="at" horiz-adv-x="948" d="M485 -164Q358 -164 262 -111T112 41T58 271Q58 370 90 451T180 592T320 682T500 714Q617 714 704 668T841 539T890 343Q890 257 866 193T799 94T698 59Q649 59 618 82T579 147Q551 103 513 81T431 59Q352
59 309 108T265 243Q265 316 293 373T370 464T481 497Q573 497 605 422L611 454Q617 491 655 491Q674 491 683 480T689 448L652 237Q646 208 646 186Q646 122 703 122Q757 122 790 183T823 343Q823 437 784 505T671 611T499 648Q389 648 307 602T178 470T132 271Q132
156 175 73T297 -54T485 -98Q556 -98 612 -80T712 -28Q727 -16 740 -18T761 -31T767 -56T750 -82Q704 -120 637 -142T485 -164ZM444 126Q485 126 517 151T568 221T587 323Q587 429 492 429Q450 429 418 405T367 340T348 244Q348 187 373 157T444 126Z" />
<glyph unicode="A" glyph-name="A" horiz-adv-x="736" d="M78 -7Q48 -7 37 12T38 60L309 668Q319 691 334 701T369 712Q387 712 402 702T428 668L699 60Q712 31 702 12T662 -7Q640 -7 627 4T604 38L546 172H189L132 38Q122 14 110 4T78 -7ZM367 590L226 256H511L369
590H367Z" />
<glyph unicode="B" glyph-name="B" horiz-adv-x="682" d="M138 0Q82 0 82 56V649Q82 705 138 705H376Q486 705 546 657T607 521Q607 464 577 423T495 363Q556 347 590 304T624 195Q624 101 562 51T388 0H138ZM182 397H360Q506 397 506 511Q506 625 360 625H182V397ZM182
80H376Q523 80 523 199Q523 317 376 317H182V80Z" />
<glyph unicode="C" glyph-name="C" horiz-adv-x="676" d="M398 -9Q291 -9 215 35T99 160T58 353Q58 464 98 545T215 670T398 714Q457 714 511 698T606 652Q628 638 631 619T626 584T598 563T558 573Q524 598 485 610T401 622Q287 622 227 552T167 353Q167 224
227 154T401 83Q445 83 485 95T562 133Q584 147 601 143T627 123T633 90T612 58Q570 25 515 8T398 -9Z" />
<glyph unicode="D" glyph-name="D" horiz-adv-x="751" d="M138 0Q82 0 82 56V649Q82 705 138 705H331Q505 705 599 614T694 353Q694 183 600 92T331 0H138ZM186 87H325Q586 87 586 353Q586 618 325 618H186V87Z" />
<glyph unicode="E" glyph-name="E" d="M138 0Q82 0 82 56V649Q82 705 138 705H503Q546 705 546 664Q546 621 503 621H182V400H481Q524 400 524 358Q524 316 481 316H182V84H503Q546 84 546 42Q546 0 503 0H138Z" />
<glyph unicode="F" glyph-name="F" horiz-adv-x="554" d="M137 -7Q82 -7 82 48V649Q82 705 138 705H494Q537 705 537 664Q537 621 494 621H186V396H474Q517 396 517 355Q517 312 474 312H186V48Q186 -7 137 -7Z" />
<glyph unicode="G" glyph-name="G" horiz-adv-x="731" d="M412 -9Q297 -9 218 34T99 159T58 352Q58 463 99 544T218 670T405 714Q465 714 522 699T629 648Q646 636 648 619T643 586T618 565T582 571Q543 598 500 610T405 623Q288 623 227 553T166 352Q166 219
228 150T416 81Q492 81 567 106V295H438Q395 295 395 335Q395 373 438 373H611Q654 373 654 330V78Q654 40 626 29Q583 12 525 2T412 -9Z" />
<glyph unicode="H" glyph-name="H" horiz-adv-x="767" d="M134 -7Q82 -7 82 46V659Q82 712 134 712Q186 712 186 659V401H581V659Q581 712 633 712Q684 712 684 659V46Q684 -7 633 -7Q581 -7 581 46V314H186V46Q186 -7 134 -7Z" />
<glyph unicode="I" glyph-name="I" horiz-adv-x="268" d="M134 -7Q82 -7 82 46V659Q82 712 134 712Q186 712 186 659V46Q186 -7 134 -7Z" />
<glyph unicode="J" glyph-name="J" horiz-adv-x="338" d="M36 -6Q13 -8 0 5T-13 39Q-13 54 -4 66T24 79L55 81Q153 89 153 193V660Q153 712 204 712Q256 712 256 660V193Q256 102 209 52T70 -4L36 -6Z" />
<glyph unicode="K" glyph-name="K" horiz-adv-x="643" d="M134 -7Q82 -7 82 46V660Q82 712 134 712Q186 712 186 660V388H188L495 685Q523 712 554 712Q577 712 587 701T596 673T579 642L287 364L594 69Q612 51 613 34T602 5T568 -7Q548 -7 536 1T508 24L188 329H186V46Q186
-7 134 -7Z" />
<glyph unicode="L" glyph-name="L" horiz-adv-x="552" d="M135 0Q82 0 82 53V656Q82 709 134 709Q186 709 186 656V89H496Q542 89 542 45Q542 0 496 0H135Z" />
<glyph unicode="M" glyph-name="M" horiz-adv-x="861" d="M132 -7Q84 -7 84 42V663Q84 712 132 712Q153 712 164 704T186 678L432 218L678 678Q688 696 699 704T731 712Q777 712 777 663V42Q777 -7 731 -7Q684 -7 684 42V516L474 129Q466 114 457 107T432 100Q415
100 406 107T388 129L178 515V42Q178 -7 132 -7Z" />
<glyph unicode="N" glyph-name="N" horiz-adv-x="743" d="M131 -7Q82 -7 82 43V660Q82 685 94 698T128 712Q146 712 156 706T178 682L565 172V663Q565 712 613 712Q661 712 661 663V42Q661 19 650 6T619 -7Q600 -7 589 0T565 24L178 535V43Q178 -7 131 -7Z" />
<glyph unicode="O" glyph-name="O" horiz-adv-x="775" d="M388 -9Q287 -9 213 35T99 161T58 353Q58 464 98 545T213 670T388 714Q488 714 562 670T677 545T718 354Q718 243 678 162T563 36T388 -9ZM388 81Q493 81 551 152T610 353Q610 482 552 553T388 624Q283
624 225 553T166 353Q166 224 224 153T388 81Z" />
<glyph unicode="P" glyph-name="P" horiz-adv-x="642" d="M134 -7Q82 -7 82 46V652Q82 705 135 705H374Q488 705 550 649T612 490Q612 387 550 331T374 274H186V46Q186 -7 134 -7ZM186 357H359Q511 357 511 490Q511 622 359 622H186V357Z" />
<glyph unicode="Q" glyph-name="Q" horiz-adv-x="775" d="M643 -124Q658 -146 652 -164T629 -190T591 -195T557 -168L491 -61Q459 -9 387 -9V-9Q287 -9 213 35T99 161T58 353Q58 464 98 545T213 670T388 714Q488 714 562 670T677 545T718 354Q718 229 667 142T525
16Q547 9 564 -7T598 -52L643 -124ZM388 81Q493 81 551 152T610 353Q610 482 552 553T388 624Q283 624 225 553T166 353Q166 224 224 153T388 81Z" />
<glyph unicode="R" glyph-name="R" horiz-adv-x="677" d="M134 -7Q82 -7 82 46V652Q82 705 135 705H374Q488 705 550 651T612 498Q612 419 570 369T451 301Q499 285 532 224L618 64Q633 37 624 15T583 -7Q561 -7 547 2T523 31L418 225Q397 264 370 277T299 291H186V46Q186
-7 134 -7ZM186 369H357Q511 369 511 496Q511 622 357 622H186V369Z" />
<glyph unicode="S" glyph-name="S" horiz-adv-x="622" d="M317 -9Q248 -9 185 7T74 55Q55 68 51 86T54 120T77 142T113 135Q158 106 208 93T317 79Q402 79 442 109T483 189Q483 229 454 252T357 290L250 312Q155 332 109 378T62 502Q62 565 95 613T189 687T327
714Q389 714 443 698T541 649Q558 637 561 620T556 589T532 569T495 577Q456 603 415 614T326 626Q252 626 209 593T165 505Q165 463 192 438T282 400L388 378Q488 357 537 314T586 196Q586 134 553 88T460 17T317 -9Z" />
<glyph unicode="T" glyph-name="T" horiz-adv-x="611" d="M306 -7Q254 -7 254 46V618H42Q-3 618 -3 662Q-3 705 42 705H569Q615 705 615 662Q615 618 569 618H357V46Q357 -7 306 -7Z" />
<glyph unicode="U" glyph-name="U" horiz-adv-x="733" d="M367 -9Q226 -9 152 65T77 284V660Q77 712 129 712Q181 712 181 660V286Q181 81 367 81Q553 81 553 286V660Q553 712 604 712Q655 712 655 660V284Q655 140 582 66T367 -9Z" />
<glyph unicode="V" glyph-name="V" horiz-adv-x="700" d="M350 -7Q308 -7 290 35L21 644Q8 675 22 693T64 712Q87 712 99 702T119 672L352 131L584 673Q593 692 605 702T640 712Q666 712 678 693T678 644L410 35Q401 13 387 3T350 -7Z" />
<glyph unicode="W" glyph-name="W" horiz-adv-x="1107" d="M319 -7Q277 -7 261 38L46 651Q37 677 49 694T91 712Q113 712 125 702T145 670L322 150L503 668Q520 712 556 712Q576 712 587 701T608 667L787 144L968 670Q975 691 987 701T1021 712Q1047 712 1059
695T1062 651L846 37Q837 15 824 4T789 -7Q766 -7 753 4T732 38L554 548L374 37Q366 15 354 4T319 -7Z" />
<glyph unicode="X" glyph-name="X" horiz-adv-x="660" d="M88 -7Q58 -7 45 15T51 64L272 360L64 639Q43 666 56 689T99 712Q129 712 153 679L331 436L507 679Q531 712 562 712Q592 712 605 690T597 639L389 360L609 64Q628 38 616 16T572 -7Q542 -7 517 26L330
282L144 26Q119 -7 88 -7Z" />
<glyph unicode="Y" glyph-name="Y" horiz-adv-x="606" d="M303 -7Q251 -7 251 47V329L27 641Q11 664 21 688T64 712Q96 712 119 679L305 420L491 679Q504 697 516 704T546 712Q577 712 587 690T578 640L354 328V47Q354 -7 303 -7Z" />
<glyph unicode="Z" glyph-name="Z" horiz-adv-x="596" d="M95 0Q56 0 46 30T64 99L438 618H87Q40 618 40 662Q40 705 87 705H512Q552 705 562 675T544 606L169 87H535Q582 87 582 44Q582 0 535 0H95Z" />
<glyph unicode="[" glyph-name="bracketleft" horiz-adv-x="333" d="M151 -180Q133 -180 121 -168T108 -137V662Q108 681 120 693T151 705H291Q309 705 320 694T331 666Q331 650 320 639T291 627H209V-102H291Q309 -102 320 -113T331 -141Q331 -158 320 -169T291
-180H151Z" />
<glyph unicode="\" glyph-name="backslash" horiz-adv-x="297" d="M227 -32L-8 697Q-14 717 -6 730T18 748T48 747T70 720L305 -8Q311 -29 303 -42T279 -60T248 -59T227 -32Z" />
<glyph unicode="]" glyph-name="bracketright" horiz-adv-x="333" d="M42 -180Q24 -180 13 -169T2 -141Q2 -125 13 -114T42 -102H124V627H42Q24 627 13 638T2 666Q2 683 13 694T42 705H182Q200 705 212 693T225 662V-137Q225 -156 213 -168T182 -180H42Z" />
<glyph unicode="^" glyph-name="asciicircum" horiz-adv-x="600" d="M98 133Q73 133 65 148T66 185L250 602Q264 635 300 635Q335 635 350 602L534 185Q543 163 535 148T502 133Q488 133 479 140T462 164L300 536L138 164Q130 146 122 140T98 133Z" />
<glyph unicode="_" glyph-name="underscore" horiz-adv-x="500" d="M47 -63Q32 -63 23 -54T13 -32Q13 -19 22 -10T47 0H454Q468 0 477 -9T487 -32Q487 -45 478 -54T454 -63H47Z" />
<glyph unicode="`" glyph-name="grave" horiz-adv-x="500" d="M212 558L112 707Q101 724 106 739T127 763T160 769T187 746L267 589Q276 571 266 558T239 544T212 558Z" />
<glyph unicode="a" glyph-name="a" horiz-adv-x="537" d="M227 -9Q176 -9 136 11T73 65T49 142Q49 196 76 227T167 272T339 286H373V312Q373 369 349 394T270 419Q238 419 204 411T132 384Q111 374 98 381T79 403T80 434T105 458Q149 478 192 487T273 497Q373
497 421 450T469 301V44Q469 -7 422 -7Q374 -7 374 44V81Q356 39 318 15T227 -9ZM247 63Q301 63 337 101T373 197V224H340Q267 224 226 217T167 194T149 148Q149 110 175 87T247 63Z" />
<glyph unicode="b" glyph-name="b" horiz-adv-x="591" d="M333 -9Q278 -9 235 15T170 82V44Q170 -7 121 -7Q71 -7 71 44V661Q71 712 121 712Q172 712 172 661V409Q194 449 236 473T333 497Q398 497 446 466T521 379T548 244Q548 166 522 109T447 22T333 -9ZM308
69Q371 69 408 114T446 244Q446 329 409 373T308 418Q245 418 208 374T170 244Q170 159 207 114T308 69Z" />
<glyph unicode="c" glyph-name="c" horiz-adv-x="467" d="M286 -9Q211 -9 157 22T72 111T42 247Q42 363 108 430T286 497Q321 497 359 487T431 452Q447 442 449 427T445 398T423 380T391 385Q367 402 342 409T294 417Q223 417 185 373T146 246Q146 164 184 118T294
71Q317 71 341 78T391 102Q409 112 422 107T442 89T447 60T428 34Q396 11 359 1T286 -9Z" />
<glyph unicode="d" glyph-name="d" horiz-adv-x="591" d="M257 -9Q193 -9 145 21T69 109T42 244Q42 322 69 378T144 466T257 497Q312 497 355 473T419 408V661Q419 712 469 712Q520 712 520 661V44Q520 -7 470 -7Q420 -7 420 44V82Q398 40 355 16T257 -9ZM283
69Q345 69 383 114T421 244Q421 329 383 373T283 418Q220 418 182 374T144 244Q144 159 182 114T283 69Z" />
<glyph unicode="e" glyph-name="e" horiz-adv-x="537" d="M300 -9Q180 -9 111 58T42 243Q42 318 72 375T157 465T281 497Q382 497 440 433T498 255Q498 221 458 221H140Q151 69 301 69Q331 69 364 76T428 104Q449 116 464 113T487 96T490 66T466 37Q432 14 387
3T300 -9ZM285 426Q222 426 185 387T140 283H413Q410 351 377 388T285 426Z" />
<glyph unicode="f" glyph-name="f" horiz-adv-x="347" d="M151 -7Q100 -7 100 44V410H44Q3 410 3 449Q3 488 44 488H100V497Q100 596 149 646T292 706L323 708Q344 710 354 700T365 674T357 646T333 632L314 631Q255 627 228 598T201 511V488H298Q340 488 340
449Q340 410 298 410H201V44Q201 -7 151 -7Z" />
<glyph unicode="g" glyph-name="g" horiz-adv-x="594" d="M292 -189Q238 -189 188 -178T96 -142Q78 -132 74 -117T77 -88T98 -68T128 -70Q172 -94 211 -102T285 -111Q425 -111 425 29V106Q404 62 360 37T260 12Q194 12 145 42T69 127T42 255Q42 327 69 381T145
466T260 497Q315 497 358 473T423 406V444Q423 495 473 495Q523 495 523 444V41Q523 -74 464 -131T292 -189ZM284 91Q348 91 386 135T424 255Q424 331 386 374T284 418Q220 418 182 375T144 255Q144 179 182 135T284 91Z" />
<glyph unicode="h" glyph-name="h" horiz-adv-x="576" d="M121 -7Q71 -7 71 44V661Q71 712 121 712Q172 712 172 661V412Q197 454 239 475T335 497Q508 497 508 301V44Q508 -7 458 -7Q407 -7 407 44V295Q407 358 383 387T306 416Q245 416 209 378T172 276V44Q172
-7 121 -7Z" />
<glyph unicode="i" glyph-name="i" horiz-adv-x="243" d="M121 597Q91 597 75 612T58 654Q58 711 121 711Q184 711 184 654Q184 597 121 597ZM121 -6Q71 -6 71 49V439Q71 493 121 493Q172 493 172 439V49Q172 -6 121 -6Z" />
<glyph unicode="j" glyph-name="j" horiz-adv-x="246" d="M125 597Q95 597 79 612T62 654Q62 711 125 711Q187 711 187 654Q187 597 125 597ZM-7 -190Q-30 -191 -42 -181T-55 -155T-49 -128T-23 -114Q27 -111 50 -87T74 -11V444Q74 495 125 495Q175 495 175 444V-3Q175
-97 130 -141T-7 -190Z" />
<glyph unicode="k" glyph-name="k" horiz-adv-x="516" d="M121 -7Q71 -7 71 44V661Q71 712 121 712Q172 712 172 661V275H174L361 461Q377 477 390 486T424 495Q455 495 464 472T452 426L277 253L470 62Q486 46 485 30T472 4T442 -7Q419 -7 406 2T374 29L174 223H172V44Q172
-7 121 -7Z" />
<glyph unicode="l" glyph-name="l" horiz-adv-x="306" d="M228 -9Q150 -9 111 36T71 168V661Q71 712 121 712Q172 712 172 661V174Q172 75 252 75Q261 75 268 76T282 77Q294 78 299 71T304 40Q304 -1 266 -7Q256 -8 247 -8T228 -9Z" />
<glyph unicode="m" glyph-name="m" horiz-adv-x="866" d="M123 -7Q73 -7 73 44V444Q73 495 122 495Q171 495 171 444V409Q193 451 232 474T323 497Q435 497 468 399Q491 445 534 471T632 497Q796 497 796 301V44Q796 -7 745 -7Q695 -7 695 44V296Q695 358 674
387T603 416Q548 416 516 378T484 273V44Q484 -7 434 -7Q383 -7 383 44V296Q383 358 362 387T292 416Q237 416 206 378T174 273V44Q174 -7 123 -7Z" />
<glyph unicode="n" glyph-name="n" horiz-adv-x="576" d="M121 -7Q71 -7 71 44V444Q71 495 120 495Q169 495 169 444V407Q194 451 237 474T335 497Q508 497 508 301V44Q508 -7 458 -7Q407 -7 407 44V295Q407 358 383 387T306 416Q245 416 209 378T172 276V44Q172
-7 121 -7Z" />
<glyph unicode="o" glyph-name="o" horiz-adv-x="565" d="M283 -9Q209 -9 155 22T72 109T42 244Q42 322 71 378T155 466T283 497Q355 497 409 466T493 379T523 244Q523 166 493 110T409 22T283 -9ZM283 69Q345 69 383 114T421 244Q421 329 383 373T283 418Q220
418 182 374T144 244Q144 159 182 114T283 69Z" />
<glyph unicode="p" glyph-name="p" horiz-adv-x="591" d="M121 -187Q71 -187 71 -136V444Q71 495 120 495Q170 495 170 444V406Q192 448 235 472T333 497Q398 497 446 466T521 379T548 244Q548 166 522 109T447 22T333 -9Q279 -9 237 14T172 79V-136Q172 -187
121 -187ZM308 69Q371 69 408 114T446 244Q446 329 409 373T308 418Q245 418 208 374T170 244Q170 159 207 114T308 69Z" />
<glyph unicode="q" glyph-name="q" horiz-adv-x="591" d="M469 -187Q419 -187 419 -136V80Q398 39 355 15T257 -9Q192 -9 144 21T69 109T42 244Q42 322 69 378T144 466T257 497Q312 497 355 473T420 406V444Q420 495 470 495Q520 495 520 444V-136Q520 -187 469
-187ZM283 69Q345 69 383 114T421 244Q421 329 383 373T283 418Q220 418 182 374T144 244Q144 159 182 114T283 69Z" />
<glyph unicode="r" glyph-name="r" horiz-adv-x="373" d="M122 -7Q71 -7 71 44V444Q71 495 120 495Q169 495 169 444V401Q189 446 229 470T328 498Q365 501 368 458Q372 414 325 410L306 408Q173 395 173 271V44Q173 -7 122 -7Z" />
<glyph unicode="s" glyph-name="s" horiz-adv-x="484" d="M242 -9Q198 -9 151 1T66 35Q49 45 45 60T47 88T66 106T97 103Q136 82 172 73T243 64Q296 64 323 83T350 134Q350 160 332 174T278 197L183 216Q57 242 57 346Q57 415 112 456T256 497Q346 497 411 453Q427
443 430 429T426 402T406 384T374 388Q344 406 314 414T256 423Q204 423 177 404T150 351Q150 301 216 287L311 268Q376 255 409 224T443 140Q443 70 388 31T242 -9Z" />
<glyph unicode="t" glyph-name="t" horiz-adv-x="365" d="M279 -9Q187 -9 142 38T97 174V410H37Q-5 410 -5 449Q-5 488 37 488H97V591Q97 642 148 642Q198 642 198 591V488H315Q357 488 357 449Q357 410 315 410H198V182Q198 129 220 102T294 75Q312 75 325 78T348
83Q359 83 366 76T373 47Q373 31 368 19T348 2Q336 -3 316 -6T279 -9Z" />
<glyph unicode="u" glyph-name="u" horiz-adv-x="569" d="M245 -9Q68 -9 68 188V444Q68 495 118 495Q169 495 169 444V187Q169 128 193 100T269 72Q326 72 361 110T397 212V444Q397 495 448 495Q498 495 498 444V44Q498 -7 449 -7Q400 -7 400 44V78Q376 35 336
13T245 -9Z" />
<glyph unicode="v" glyph-name="v" horiz-adv-x="520" d="M260 -7Q218 -7 198 38L31 426Q19 453 30 474T75 495Q93 495 104 486T125 455L262 117L402 455Q411 477 422 486T455 495Q482 495 492 474T491 427L322 38Q303 -7 260 -7Z" />
<glyph unicode="w" glyph-name="w" horiz-adv-x="846" d="M249 -7Q205 -7 188 37L41 426Q29 456 41 475T84 495Q102 495 113 487T133 454L252 118L376 458Q390 495 426 495Q463 495 476 458L598 116L720 456Q728 479 740 487T769 495Q799 495 807 474T806 426L659
37Q641 -7 599 -7Q554 -7 538 37L423 349L309 37Q293 -7 249 -7Z" />
<glyph unicode="x" glyph-name="x" horiz-adv-x="534" d="M88 -6Q61 -6 50 16T60 66L210 252L71 424Q48 451 60 473T98 495Q117 495 129 489T153 467L268 321L384 467Q395 482 407 488T438 495Q464 495 476 473T465 423L326 251L476 66Q498 39 487 17T448 -6Q415
-6 393 22L267 180L142 22Q131 8 119 1T88 -6Z" />
<glyph unicode="y" glyph-name="y" horiz-adv-x="520" d="M186 -187Q158 -187 148 -167T149 -119L208 13L30 426Q18 453 29 474T75 495Q93 495 104 486T125 455L262 117L401 455Q410 478 422 486T455 495Q482 495 492 474T491 427L241 -148Q231 -171 219 -179T186 -187Z" />
<glyph unicode="z" glyph-name="z" horiz-adv-x="468" d="M90 0Q68 0 58 13T48 45T66 82L318 410H84Q45 410 45 449Q45 488 84 488H386Q411 488 423 475T434 444T417 407L162 77H408Q448 77 448 39Q448 0 408 0H90Z" />
<glyph unicode="{" glyph-name="braceleft" horiz-adv-x="370" d="M254 -180Q202 -180 174 -152T145 -69V143Q145 184 129 202T73 223Q57 223 48 234T39 263Q39 279 48 290T73 303Q113 304 129 323T145 382V594Q145 648 173 676T254 705H325Q343 705 355 694T368
666Q368 650 358 639T331 627H287Q246 627 246 583V371Q246 330 225 300T171 262Q203 255 224 225T246 154V-58Q246 -102 287 -102H331Q347 -102 357 -113T368 -141Q368 -158 356 -169T325 -180H254Z" />
<glyph unicode="|" glyph-name="bar" horiz-adv-x="275" d="M138 -188Q87 -188 87 -137V661Q87 712 138 712Q188 712 188 661V-137Q188 -188 138 -188Z" />
<glyph unicode="}" glyph-name="braceright" horiz-adv-x="370" d="M45 -180Q27 -180 15 -169T2 -141Q2 -125 12 -114T39 -102H83Q124 -102 124 -58V154Q124 195 145 225T199 263Q167 270 146 300T124 371V583Q124 627 83 627H39Q23 627 13 638T2 666Q2 683 14
694T45 705H115Q168 705 196 677T225 594V382Q225 342 241 323T296 303Q313 302 322 291T331 262Q331 246 322 235T296 223Q257 222 241 203T225 143V-69Q225 -123 197 -151T115 -180H45Z" />
<glyph unicode="~" glyph-name="asciitilde" horiz-adv-x="600" d="M412 213Q387 213 359 222T291 254Q252 275 231 282T194 290Q174 290 157 282T124 250Q111 230 94 232T67 251T69 287Q90 324 120 342T188 361Q213 361 241 352T308 323Q343 304 366 294T406
284Q426 284 444 292T477 325Q490 345 507 342T534 324T532 288Q511 251 480 232T412 213Z" />
<glyph unicode="&#xa0;" glyph-name="uni00A0" horiz-adv-x="264" />
<glyph unicode="&#xa1;" glyph-name="exclamdown" horiz-adv-x="237" d="M120 365Q90 365 73 383T55 428Q55 457 72 474T120 492Q149 492 166 475T183 428Q183 401 166 383T120 365ZM120 -187Q90 -187 75 -169T61 -121L85 261Q89 299 120 299Q151 299 153 261L176
-121Q178 -151 164 -169T120 -187Z" />
<glyph unicode="&#xa2;" glyph-name="cent" horiz-adv-x="600" d="M320 -122Q302 -122 290 -110T278 -80V-3Q191 13 139 80T87 244Q87 307 110 358T177 443T278 488V573Q278 591 290 603T320 615Q337 615 349 603T361 573V492Q395 489 428 478T487 450Q503 439
505 424T501 395T480 377T447 383Q400 413 341 413Q271 413 231 367T190 246Q190 169 230 123T340 76Q366 76 393 83T447 106Q468 118 482 113T502 94T504 64T484 38Q460 21 427 10T361 -6V-80Q361 -98 350 -110T320 -122Z" />
<glyph unicode="&#xa3;" glyph-name="sterling" horiz-adv-x="600" d="M82 0Q64 0 52 12T39 43Q39 62 51 74T82 86H138V317H77Q61 317 50 327T39 354Q39 370 50 380T77 390H138V504Q138 601 194 657T363 714Q414 714 465 698T551 655Q568 641 570 624T563 593T538
577T503 586Q471 609 437 619T365 629Q241 629 241 508V390H383Q399 390 410 380T422 354Q422 338 411 328T383 317H241V86H520Q539 86 551 74T564 43Q564 25 552 13T520 0H82Z" />
<glyph unicode="&#xa4;" glyph-name="currency" horiz-adv-x="600" d="M50 -11Q39 -1 39 12T50 36L107 95Q84 126 71 164T58 245Q58 287 70 325T107 396L50 455Q27 478 50 501Q59 512 72 512T97 500L154 442Q184 466 221 479T300 493Q340 493 377 480T444 444L499
500Q510 511 524 511T548 502Q559 491 559 477T548 452L492 395Q540 329 540 245Q540 203 528 165T491 94L548 36Q558 26 558 13T548 -11Q539 -21 525 -21T501 -10L445 48Q415 24 378 11T300 -3Q258 -3 221 10T153 47L96 -10Q86 -21 73 -21T50 -11ZM299 81Q342
81 376 103T432 162T453 245Q453 291 432 328T377 387T299 409Q257 409 222 387T166 328T145 245Q145 200 165 163T221 103T299 81Z" />
<glyph unicode="&#xa5;" glyph-name="yen" horiz-adv-x="600" d="M300 -7Q248 -7 248 47V168H103Q63 168 63 204Q63 241 103 241H248V322H103Q63 322 63 358Q63 395 103 395H210L33 644Q17 666 28 689T69 712Q99 712 120 681L300 421L480 680Q502 712 532 712Q562
712 573 690T566 642L391 395H497Q537 395 537 358Q537 322 497 322H352V241H497Q537 241 537 204Q537 168 497 168H352V47Q352 -7 300 -7Z" />
<glyph unicode="&#xa6;" glyph-name="brokenbar" horiz-adv-x="275" d="M138 365Q87 365 87 416V661Q87 712 138 712Q188 712 188 661V416Q188 365 138 365ZM138 -187Q87 -187 87 -136V109Q87 161 138 161Q188 161 188 109V-136Q188 -187 138 -187Z" />
<glyph unicode="&#xa7;" glyph-name="section" horiz-adv-x="556" d="M255 -189Q201 -189 155 -178T74 -145Q58 -135 56 -121T59 -93T79 -74T110 -78Q140 -95 179 -105T255 -115Q311 -115 345 -89T379 -14Q379 20 361 44T296 91L178 145Q100 181 70 222T39 318Q39
356 55 391T101 451Q91 466 85 486T79 532Q79 589 107 629T185 692T298 714Q404 714 475 669Q490 659 493 644T490 616T470 597T438 602Q409 619 372 629T297 640Q245 640 211 614T177 539Q177 505 195 481T261 434L378 380Q456 343 487 303T518 207Q518 168 501
134T455 73Q465 59 471 39T477 -8Q477 -64 449 -105T370 -167T255 -189ZM130 334Q130 300 151 273T228 220L329 173Q354 162 373 149T405 123Q427 153 427 190Q427 224 406 251T328 305L227 351Q202 363 184 376T151 401Q130 372 130 334Z" />
<glyph unicode="&#xa8;" glyph-name="dieresis" horiz-adv-x="500" d="M341 600Q287 600 287 654Q287 706 341 706Q394 706 394 654Q394 600 341 600ZM160 600Q106 600 106 654Q106 679 120 692T160 706Q214 706 214 654Q214 600 160 600Z" />
<glyph unicode="&#xa9;" glyph-name="copyright" horiz-adv-x="815" d="M408 -9Q331 -9 265 18T150 95T73 210T46 353Q46 430 73 495T149 610T265 687T408 714Q485 714 550 687T665 611T742 496T769 353Q769 276 742 210T666 95T551 19T408 -9ZM408 39Q475 39
531 62T630 129T695 229T719 353Q719 442 679 513T568 625T408 666Q341 666 285 643T186 577T120 477T96 353Q96 286 119 229T185 129T284 63T408 39ZM423 137Q325 137 268 196T211 355Q211 454 268 511T423 568Q455 568 488 559T548 531Q563 523 566 509T563 483T545
466T517 471Q495 485 473 491T429 497Q368 497 334 460T299 354Q299 286 333 247T429 208Q451 208 473 214T518 234Q539 246 552 235T566 206T549 175Q522 157 489 147T423 137Z" />
<glyph unicode="&#xaa;" glyph-name="ordfeminine" horiz-adv-x="332" d="M136 409Q87 409 56 435T25 502Q25 548 66 568T183 588H231V602Q231 662 162 662Q143 662 123 658T81 645Q61 639 51 649T43 673T64 695Q89 706 115 710T166 714Q298 714 298 599V442Q298
409 266 409Q251 409 243 418T234 443V470H232Q215 439 193 424T136 409ZM152 458Q186 458 208 481T231 544V548H186Q93 548 93 503Q93 484 107 471T152 458Z" />
<glyph unicode="&#xab;" glyph-name="guillemotleft" horiz-adv-x="465" d="M196 86Q182 80 168 84T147 101L66 232Q46 265 66 299L145 429Q153 443 167 447T195 445Q210 438 215 422T212 388L153 266L212 143Q221 125 217 109T196 86ZM389 86Q375 80 361 84T340
101L259 232Q239 265 259 299L338 429Q346 443 360 447T388 445Q403 438 408 422T405 388L346 266L405 143Q414 125 410 109T389 86Z" />
<glyph unicode="&#xac;" glyph-name="logicalnot" horiz-adv-x="600" d="M506 137Q467 137 467 177V352H87Q49 352 49 389Q49 425 87 425H505Q544 425 544 386V177Q544 137 506 137Z" />
<glyph unicode="&#xad;" glyph-name="uni00AD" horiz-adv-x="429" d="M105 226Q87 226 75 238T63 267Q63 285 75 296T105 308H325Q342 308 354 297T366 267Q366 250 354 238T325 226H105Z" />
<glyph unicode="&#xae;" glyph-name="registered" horiz-adv-x="815" d="M408 -9Q331 -9 265 18T150 95T73 210T46 353Q46 430 73 495T149 610T265 687T408 714Q485 714 550 687T665 611T742 496T769 353Q769 276 742 210T666 95T551 19T408 -9ZM408 39Q475 39
531 62T630 129T695 229T719 353Q719 442 679 513T568 625T408 666Q341 666 285 643T186 577T120 477T96 353Q96 286 119 229T185 129T284 63T408 39ZM299 136Q259 136 259 178V517Q259 564 307 564H436Q505 564 542 531T579 441Q579 395 556 367T490 328Q506 322
518 308T539 267L568 187Q577 162 565 149T531 136Q516 136 507 144T493 168L458 270Q450 293 433 301T392 309H339V178Q339 136 299 136ZM338 371H425Q502 371 502 437Q502 503 425 503H338V371Z" />
<glyph unicode="&#xaf;" glyph-name="overscore" horiz-adv-x="500" d="M128 621Q94 621 94 653Q94 685 128 685H373Q406 685 406 653Q406 621 373 621H128Z" />
<glyph unicode="&#xb0;" glyph-name="degree" horiz-adv-x="375" d="M188 413Q144 413 110 433T55 487T35 564Q35 606 55 640T109 694T188 714Q231 714 265 695T319 641T339 564Q339 521 319 487T265 433T188 413ZM188 475Q225 475 248 500T272 564Q272 602 249
627T188 652Q150 652 126 627T102 564Q102 525 126 500T188 475Z" />
<glyph unicode="&#xb1;" glyph-name="plusminus" horiz-adv-x="600" d="M300 125Q262 125 262 165V294H87Q49 294 49 332Q49 368 87 368H262V498Q262 538 300 538Q338 538 338 498V368H513Q551 368 551 332Q551 294 513 294H338V165Q338 125 300 125ZM87 0Q49
0 49 37Q49 74 87 74H513Q551 74 551 37Q551 0 513 0H87Z" />
<glyph unicode="&#xb2;" glyph-name="uni00B2" horiz-adv-x="380" d="M88 282Q71 282 60 292T49 318Q49 332 54 342T70 363L182 481Q208 510 220 533T232 580Q232 639 167 639Q126 639 88 614Q72 604 60 608T41 623T37 648T56 672Q81 690 115 699T184 709Q247
709 284 677T321 590Q321 557 305 525T254 456L155 352H310Q346 352 346 317Q346 282 310 282H88Z" />
<glyph unicode="&#xb3;" glyph-name="uni00B3" horiz-adv-x="380" d="M186 278Q105 278 53 314Q33 328 33 347T49 375T87 372Q107 359 130 353T177 347Q211 347 232 362T254 408Q254 437 234 448T178 460H131Q93 460 93 496Q93 531 131 531H166Q202 531 222 544T242
586Q242 610 224 624T172 639Q130 639 92 616Q68 602 53 612T36 640T56 672Q112 709 185 709Q249 709 286 679T324 599Q324 563 305 538T257 500Q293 491 314 465T336 398Q336 341 293 310T186 278Z" />
<glyph unicode="&#xb4;" glyph-name="acute" horiz-adv-x="500" d="M289 558Q279 542 262 543T235 558T233 589L314 746Q324 766 340 769T372 764T394 740T388 707L289 558Z" />
<glyph unicode="&#xb5;" glyph-name="uni00B5" horiz-adv-x="600" d="M136 -187Q86 -187 86 -136V444Q86 495 136 495Q187 495 187 444V188Q187 129 211 102T287 74Q343 74 379 111T415 213V444Q415 495 465 495Q516 495 516 444V44Q516 -7 467 -7Q443 -7 430
5T417 37V87Q400 40 364 16T284 -9Q250 -9 223 1T179 40L185 -135Q187 -187 136 -187Z" />
<glyph unicode="&#xb6;" glyph-name="paragraph" horiz-adv-x="604" d="M284 -187Q246 -187 246 -148V297Q184 297 138 323T67 395T41 502Q41 562 66 607T138 679T248 705H472Q523 705 523 655V-148Q523 -187 484 -187Q446 -187 446 -148V631H323V-148Q323 -187
284 -187Z" />
<glyph unicode="&#xb7;" glyph-name="middot" horiz-adv-x="237" d="M120 204Q90 204 73 221T55 267Q55 295 72 312T120 330Q149 330 166 313T183 267Q183 239 166 222T120 204Z" />
<glyph unicode="&#xb8;" glyph-name="cedilla" horiz-adv-x="500" d="M252 -194Q233 -194 213 -191T177 -182Q159 -175 157 -161T165 -136T193 -132Q215 -140 246 -140Q273 -140 288 -132T303 -107Q303 -81 265 -81Q257 -81 250 -81T233 -85Q218 -89 210 -83Q202
-77 205 -58L217 20H275L265 -41Q273 -40 280 -40Q319 -40 343 -58T367 -110Q367 -147 335 -170T252 -194Z" />
<glyph unicode="&#xb9;" glyph-name="uni00B9" horiz-adv-x="380" d="M109 282Q73 282 73 317Q73 352 109 352H174V610L127 582Q109 572 95 576T75 593T71 619T92 644L174 693Q186 700 197 704T220 708Q256 708 256 670V352H303Q340 352 340 317Q340 282 303 282H109Z" />
<glyph unicode="&#xba;" glyph-name="ordmasculine" horiz-adv-x="345" d="M173 410Q107 410 64 451T21 563Q21 632 64 673T173 714Q238 714 281 673T324 563Q324 493 281 452T173 410ZM173 464Q210 464 232 489T255 563Q255 611 233 636T173 661Q135 661 113
637T90 563Q90 514 112 489T173 464Z" />
<glyph unicode="&#xbb;" glyph-name="guillemotright" horiz-adv-x="465" d="M76 86Q61 93 56 109T60 143L120 266L60 388Q51 406 56 422T78 445Q92 451 106 447T128 429L206 299Q226 265 206 232L126 101Q119 88 105 84T76 86ZM269 86Q254 93 249 109T253 143L313
266L253 388Q244 406 249 422T271 445Q285 451 299 447T321 429L399 299Q419 265 399 232L319 101Q312 88 298 84T269 86Z" />
<glyph unicode="&#xbc;" glyph-name="onequarter" horiz-adv-x="902" d="M109 282Q73 282 73 317Q73 352 109 352H174V610L127 582Q109 572 95 576T75 593T71 619T92 644L174 693Q186 700 197 704T220 708Q256 708 256 670V352H303Q340 352 340 317Q340 282 303
282H109ZM320 4Q309 -14 294 -17T266 -12T248 10T254 43L634 701Q645 719 660 722T688 717T705 695T700 662L320 4ZM784 -4Q742 -4 742 35V78H591Q571 78 560 89T549 115Q549 127 554 137T570 162L732 399Q737 406 749 416T782 427Q824 427 824 383V148H853Q867
148 877 140T887 114Q887 94 877 86T853 78H824V35Q824 -4 784 -4ZM742 148V306L634 148H742Z" />
<glyph unicode="&#xbd;" glyph-name="onehalf" horiz-adv-x="948" d="M109 282Q73 282 73 317Q73 352 109 352H174V610L127 582Q109 572 95 576T75 593T71 619T92 644L174 693Q186 700 197 704T220 708Q256 708 256 670V352H303Q340 352 340 317Q340 282 303 282H109ZM320
4Q309 -14 294 -17T266 -12T248 10T254 43L634 701Q645 719 660 722T688 717T705 695T700 662L320 4ZM656 0Q639 0 628 10T617 36Q617 50 622 60T638 81L750 199Q776 228 788 251T800 298Q800 357 735 357Q694 357 656 332Q640 322 628 326T609 341T605 366T624
390Q649 408 683 417T752 427Q815 427 852 395T889 308Q889 275 873 243T822 174L723 70H878Q914 70 914 35Q914 0 878 0H656Z" />
<glyph unicode="&#xbe;" glyph-name="threequarters" horiz-adv-x="902" d="M186 278Q105 278 53 314Q33 328 33 347T49 375T87 372Q107 359 130 353T177 347Q211 347 232 362T254 408Q254 437 234 448T178 460H131Q93 460 93 496Q93 531 131 531H166Q202 531
222 544T242 586Q242 610 224 624T172 639Q130 639 92 616Q68 602 53 612T36 640T56 672Q112 709 185 709Q249 709 286 679T324 599Q324 563 305 538T257 500Q293 491 314 465T336 398Q336 341 293 310T186 278ZM320 4Q309 -14 294 -17T266 -12T248 10T254 43L634
701Q645 719 660 722T688 717T705 695T700 662L320 4ZM784 -4Q742 -4 742 35V78H591Q571 78 560 89T549 115Q549 127 554 137T570 162L732 399Q737 406 749 416T782 427Q824 427 824 383V148H853Q867 148 877 140T887 114Q887 94 877 86T853 78H824V35Q824 -4 784
-4ZM742 148V306L634 148H742Z" />
<glyph unicode="&#xbf;" glyph-name="questiondown" horiz-adv-x="450" d="M237 365Q207 365 190 382T173 428Q173 456 190 474T237 492Q266 492 283 474T301 428Q301 400 284 383T237 365ZM221 -189Q131 -189 76 -147T21 -37Q21 5 40 43T112 128Q160 171 178
203T202 268Q204 281 212 289T235 297Q268 297 268 259Q268 218 251 179T187 92Q150 56 137 31T124 -22Q124 -58 151 -79T226 -101Q308 -101 377 -56Q400 -42 417 -46T443 -66T446 -99T419 -131Q378 -158 328 -173T221 -189Z" />
<glyph unicode="&#xc0;" glyph-name="Agrave" horiz-adv-x="736" d="M78 -7Q48 -7 37 12T38 60L309 668Q319 691 334 701T369 712Q387 712 402 702T428 668L699 60Q712 31 702 12T662 -7Q640 -7 627 4T604 38L546 172H189L132 38Q122 14 110 4T78 -7ZM367 590L226
256H511L369 590H367ZM327 770L227 885Q213 900 217 915T235 939T265 948T295 929L379 806Q390 790 382 776T357 759T327 770Z" />
<glyph unicode="&#xc1;" glyph-name="Aacute" horiz-adv-x="736" d="M78 -7Q48 -7 37 12T38 60L309 668Q319 691 334 701T369 712Q387 712 402 702T428 668L699 60Q712 31 702 12T662 -7Q640 -7 627 4T604 38L546 172H189L132 38Q122 14 110 4T78 -7ZM367 590L226
256H511L369 590H367ZM411 770Q398 755 382 758T357 776T360 806L444 929Q456 947 473 948T504 940T521 915T512 885L411 770Z" />
<glyph unicode="&#xc2;" glyph-name="Acircumflex" horiz-adv-x="736" d="M78 -7Q48 -7 37 12T38 60L309 668Q319 691 334 701T369 712Q387 712 402 702T428 668L699 60Q712 31 702 12T662 -7Q640 -7 627 4T604 38L546 172H189L132 38Q122 14 110 4T78 -7ZM367
590L226 256H511L369 590H367ZM278 770Q264 755 248 757T223 773T227 802L308 915Q331 948 369 948Q407 948 431 915L511 802Q523 786 515 773T491 758T460 770L369 877L278 770Z" />
<glyph unicode="&#xc3;" glyph-name="Atilde" horiz-adv-x="736" d="M78 -7Q48 -7 37 12T38 60L309 668Q319 691 334 701T369 712Q387 712 402 702T428 668L699 60Q712 31 702 12T662 -7Q640 -7 627 4T604 38L546 172H189L132 38Q122 14 110 4T78 -7ZM367 590L226
256H511L369 590H367ZM183 775Q170 775 162 783T157 808Q168 862 200 891T280 921Q307 921 331 911T378 886T420 861T461 850Q487 850 503 865T525 905Q532 929 555 928Q568 927 576 919T581 895Q570 841 538 811T459 781Q431 781 407 792T361 817T318 842T277
853Q251 853 235 838T213 798Q206 774 183 775Z" />
<glyph unicode="&#xc4;" glyph-name="Adieresis" horiz-adv-x="736" d="M78 -7Q48 -7 37 12T38 60L309 668Q319 691 334 701T369 712Q387 712 402 702T428 668L699 60Q712 31 702 12T662 -7Q640 -7 627 4T604 38L546 172H189L132 38Q122 14 110 4T78 -7ZM367 590L226
256H511L369 590H367ZM460 795Q406 795 406 849Q406 901 460 901Q513 901 513 849Q513 795 460 795ZM279 795Q225 795 225 849Q225 874 239 887T279 901Q333 901 333 849Q333 795 279 795Z" />
<glyph unicode="&#xc5;" glyph-name="Aring" horiz-adv-x="736" d="M78 -7Q48 -7 37 12T38 60L309 668Q319 691 334 701T369 712Q387 712 402 702T428 668L699 60Q712 31 702 12T662 -7Q640 -7 627 4T604 38L546 172H189L132 38Q122 14 110 4T78 -7ZM367 590L226
256H511L369 590H367ZM369 756Q317 756 282 791T247 876Q247 926 282 960T369 994Q421 994 456 960T491 876Q491 826 456 791T369 756ZM369 806Q399 806 418 826T438 876Q438 905 419 924T369 944Q339 944 320 925T300 876Q300 846 319 826T369 806Z" />
<glyph unicode="&#xc6;" glyph-name="AE" horiz-adv-x="987" d="M47 -7Q13 -7 4 13T11 58L390 675Q407 705 443 705H898Q943 705 943 664Q943 621 898 621H520L568 400H878Q922 400 922 358Q922 316 878 316H586L636 84H898Q943 84 943 42Q943 0 898 0H601Q561
0 552 39L524 172H188L100 26Q91 9 79 1T47 -7ZM433 587L237 256H506L435 587H433Z" />
<glyph unicode="&#xc7;" glyph-name="Ccedilla" horiz-adv-x="676" d="M398 -9Q291 -9 215 35T99 160T58 353Q58 464 98 545T215 670T398 714Q457 714 511 698T606 652Q628 638 631 619T626 584T598 563T558 573Q524 598 485 610T401 622Q287 622 227 552T167
353Q167 224 227 154T401 83Q445 83 485 95T562 133Q584 147 601 143T627 123T633 90T612 58Q570 25 515 8T398 -9ZM390 -194Q371 -194 351 -191T315 -182Q297 -175 295 -161T303 -136T331 -132Q353 -140 384 -140Q411 -140 426 -132T441 -107Q441 -81 403 -81Q395
-81 388 -81T371 -85Q356 -89 348 -83Q340 -77 343 -58L355 20H413L403 -41Q411 -40 418 -40Q457 -40 481 -58T505 -110Q505 -147 473 -170T390 -194Z" />
<glyph unicode="&#xc8;" glyph-name="Egrave" d="M138 0Q82 0 82 56V649Q82 705 138 705H503Q546 705 546 664Q546 621 503 621H182V400H481Q524 400 524 358Q524 316 481 316H182V84H503Q546 84 546 42Q546 0 503 0H138ZM284 770L184 885Q170 900 174 915T192
939T222 948T252 929L336 806Q347 790 339 776T314 759T284 770Z" />
<glyph unicode="&#xc9;" glyph-name="Eacute" d="M138 0Q82 0 82 56V649Q82 705 138 705H503Q546 705 546 664Q546 621 503 621H182V400H481Q524 400 524 358Q524 316 481 316H182V84H503Q546 84 546 42Q546 0 503 0H138ZM368 770Q355 755 339 758T314 776T317
806L401 929Q413 947 430 948T461 940T478 915T469 885L368 770Z" />
<glyph unicode="&#xca;" glyph-name="Ecircumflex" d="M138 0Q82 0 82 56V649Q82 705 138 705H503Q546 705 546 664Q546 621 503 621H182V400H481Q524 400 524 358Q524 316 481 316H182V84H503Q546 84 546 42Q546 0 503 0H138ZM235 770Q221 755 205 757T180 773T184
802L265 915Q288 948 326 948Q364 948 388 915L468 802Q480 786 472 773T448 758T417 770L326 877L235 770Z" />
<glyph unicode="&#xcb;" glyph-name="Edieresis" d="M138 0Q82 0 82 56V649Q82 705 138 705H503Q546 705 546 664Q546 621 503 621H182V400H481Q524 400 524 358Q524 316 481 316H182V84H503Q546 84 546 42Q546 0 503 0H138ZM417 795Q363 795 363 849Q363 901
417 901Q470 901 470 849Q470 795 417 795ZM236 795Q182 795 182 849Q182 874 196 887T236 901Q290 901 290 849Q290 795 236 795Z" />
<glyph unicode="&#xcc;" glyph-name="Igrave" horiz-adv-x="268" d="M134 -7Q82 -7 82 46V659Q82 712 134 712Q186 712 186 659V46Q186 -7 134 -7ZM92 770L-8 885Q-22 900 -18 915T0 939T30 948T60 929L144 806Q155 790 147 776T122 759T92 770Z" />
<glyph unicode="&#xcd;" glyph-name="Iacute" horiz-adv-x="268" d="M134 -7Q82 -7 82 46V659Q82 712 134 712Q186 712 186 659V46Q186 -7 134 -7ZM176 770Q163 755 147 758T122 776T125 806L209 929Q221 947 238 948T269 940T286 915T277 885L176 770Z" />
<glyph unicode="&#xce;" glyph-name="Icircumflex" horiz-adv-x="268" d="M134 -7Q82 -7 82 46V659Q82 712 134 712Q186 712 186 659V46Q186 -7 134 -7ZM43 770Q29 755 13 757T-12 773T-8 802L73 915Q96 948 134 948Q172 948 196 915L276 802Q288 786 280 773T256
758T225 770L134 877L43 770Z" />
<glyph unicode="&#xcf;" glyph-name="Idieresis" horiz-adv-x="268" d="M134 -7Q82 -7 82 46V659Q82 712 134 712Q186 712 186 659V46Q186 -7 134 -7ZM225 795Q171 795 171 849Q171 901 225 901Q278 901 278 849Q278 795 225 795ZM44 795Q-10 795 -10 849Q-10
874 4 887T44 901Q98 901 98 849Q98 795 44 795Z" />
<glyph unicode="&#xd0;" glyph-name="Eth" horiz-adv-x="751" d="M138 0Q82 0 82 56V649Q82 705 138 705H331Q505 705 599 614T694 353Q694 183 600 92T331 0H138ZM186 87H325Q586 87 586 353Q586 618 325 618H186V87ZM28 319Q-12 319 -12 358Q-12 396 28 396H347Q387
396 387 358Q387 319 347 319H28Z" />
<glyph unicode="&#xd1;" glyph-name="Ntilde" horiz-adv-x="743" d="M131 -7Q82 -7 82 43V660Q82 685 94 698T128 712Q146 712 156 706T178 682L565 172V663Q565 712 613 712Q661 712 661 663V42Q661 19 650 6T619 -7Q600 -7 589 0T565 24L178 535V43Q178 -7 131
-7ZM186 775Q173 775 165 783T160 808Q171 862 203 891T283 921Q310 921 334 911T381 886T423 861T464 850Q490 850 506 865T528 905Q535 929 558 928Q571 927 579 919T584 895Q573 841 541 811T462 781Q434 781 410 792T364 817T321 842T280 853Q254 853 238 838T216
798Q209 774 186 775Z" />
<glyph unicode="&#xd2;" glyph-name="Ograve" horiz-adv-x="775" d="M388 -9Q287 -9 213 35T99 161T58 353Q58 464 98 545T213 670T388 714Q488 714 562 670T677 545T718 354Q718 243 678 162T563 36T388 -9ZM388 81Q493 81 551 152T610 353Q610 482 552 553T388
624Q283 624 225 553T166 353Q166 224 224 153T388 81ZM345 770L245 885Q231 900 235 915T253 939T283 948T313 929L397 806Q408 790 400 776T375 759T345 770Z" />
<glyph unicode="&#xd3;" glyph-name="Oacute" horiz-adv-x="775" d="M388 -9Q287 -9 213 35T99 161T58 353Q58 464 98 545T213 670T388 714Q488 714 562 670T677 545T718 354Q718 243 678 162T563 36T388 -9ZM388 81Q493 81 551 152T610 353Q610 482 552 553T388
624Q283 624 225 553T166 353Q166 224 224 153T388 81ZM429 770Q416 755 400 758T375 776T378 806L462 929Q474 947 491 948T522 940T539 915T530 885L429 770Z" />
<glyph unicode="&#xd4;" glyph-name="Ocircumflex" horiz-adv-x="775" d="M388 -9Q287 -9 213 35T99 161T58 353Q58 464 98 545T213 670T388 714Q488 714 562 670T677 545T718 354Q718 243 678 162T563 36T388 -9ZM388 81Q493 81 551 152T610 353Q610 482 552
553T388 624Q283 624 225 553T166 353Q166 224 224 153T388 81ZM296 770Q282 755 266 757T241 773T245 802L326 915Q349 948 387 948Q425 948 449 915L529 802Q541 786 533 773T509 758T478 770L387 877L296 770Z" />
<glyph unicode="&#xd5;" glyph-name="Otilde" horiz-adv-x="775" d="M388 -9Q287 -9 213 35T99 161T58 353Q58 464 98 545T213 670T388 714Q488 714 562 670T677 545T718 354Q718 243 678 162T563 36T388 -9ZM388 81Q493 81 551 152T610 353Q610 482 552 553T388
624Q283 624 225 553T166 353Q166 224 224 153T388 81ZM201 775Q188 775 180 783T175 808Q186 862 218 891T298 921Q325 921 349 911T396 886T438 861T479 850Q505 850 521 865T543 905Q550 929 573 928Q586 927 594 919T599 895Q588 841 556 811T477 781Q449 781
425 792T379 817T336 842T295 853Q269 853 253 838T231 798Q224 774 201 775Z" />
<glyph unicode="&#xd6;" glyph-name="Odieresis" horiz-adv-x="775" d="M388 -9Q287 -9 213 35T99 161T58 353Q58 464 98 545T213 670T388 714Q488 714 562 670T677 545T718 354Q718 243 678 162T563 36T388 -9ZM388 81Q493 81 551 152T610 353Q610 482 552 553T388
624Q283 624 225 553T166 353Q166 224 224 153T388 81ZM478 795Q424 795 424 849Q424 901 478 901Q531 901 531 849Q531 795 478 795ZM297 795Q243 795 243 849Q243 874 257 887T297 901Q351 901 351 849Q351 795 297 795Z" />
<glyph unicode="&#xd7;" glyph-name="multiply" horiz-adv-x="600" d="M140 73Q127 60 112 61T87 72T76 96T89 125L248 285L86 447Q72 461 73 476T84 501T110 512T139 499L300 338L461 499Q475 513 490 512T515 501T527 475T514 447L352 285L511 125Q525 111 524
97T513 72T489 61T460 73L300 233L140 73Z" />
<glyph unicode="&#xd8;" glyph-name="Oslash" horiz-adv-x="775" d="M388 -9Q287 -9 213 35T99 161T58 353Q58 464 98 545T213 670T388 714Q488 714 562 670T677 545T718 354Q718 243 678 162T563 36T388 -9ZM388 81Q493 81 551 152T610 353Q610 482 552 553T388
624Q283 624 225 553T166 353Q166 224 224 153T388 81ZM213 -27Q203 -45 187 -47T158 -42T139 -19T144 15L187 88L217 137L497 618L520 658L563 732Q573 749 588 752T618 747T637 724T631 690L588 617L559 568L278 88L256 47L213 -27Z" />
<glyph unicode="&#xd9;" glyph-name="Ugrave" horiz-adv-x="733" d="M367 -9Q226 -9 152 65T77 284V660Q77 712 129 712Q181 712 181 660V286Q181 81 367 81Q553 81 553 286V660Q553 712 604 712Q655 712 655 660V284Q655 140 582 66T367 -9ZM325 770L225 885Q211
900 215 915T233 939T263 948T293 929L377 806Q388 790 380 776T355 759T325 770Z" />
<glyph unicode="&#xda;" glyph-name="Uacute" horiz-adv-x="733" d="M367 -9Q226 -9 152 65T77 284V660Q77 712 129 712Q181 712 181 660V286Q181 81 367 81Q553 81 553 286V660Q553 712 604 712Q655 712 655 660V284Q655 140 582 66T367 -9ZM409 770Q396 755
380 758T355 776T358 806L442 929Q454 947 471 948T502 940T519 915T510 885L409 770Z" />
<glyph unicode="&#xdb;" glyph-name="Ucircumflex" horiz-adv-x="733" d="M367 -9Q226 -9 152 65T77 284V660Q77 712 129 712Q181 712 181 660V286Q181 81 367 81Q553 81 553 286V660Q553 712 604 712Q655 712 655 660V284Q655 140 582 66T367 -9ZM276 770Q262
755 246 757T221 773T225 802L306 915Q329 948 367 948Q405 948 429 915L509 802Q521 786 513 773T489 758T458 770L367 877L276 770Z" />
<glyph unicode="&#xdc;" glyph-name="Udieresis" horiz-adv-x="733" d="M367 -9Q226 -9 152 65T77 284V660Q77 712 129 712Q181 712 181 660V286Q181 81 367 81Q553 81 553 286V660Q553 712 604 712Q655 712 655 660V284Q655 140 582 66T367 -9ZM458 795Q404 795
404 849Q404 901 458 901Q511 901 511 849Q511 795 458 795ZM277 795Q223 795 223 849Q223 874 237 887T277 901Q331 901 331 849Q331 795 277 795Z" />
<glyph unicode="&#xdd;" glyph-name="Yacute" horiz-adv-x="606" d="M303 -7Q251 -7 251 47V329L27 641Q11 664 21 688T64 712Q96 712 119 679L305 420L491 679Q504 697 516 704T546 712Q577 712 587 690T578 640L354 328V47Q354 -7 303 -7ZM345 770Q332 755 316
758T291 776T294 806L378 929Q390 947 407 948T438 940T455 915T446 885L345 770Z" />
<glyph unicode="&#xde;" glyph-name="Thorn" horiz-adv-x="644" d="M134 -4Q82 -4 82 49V656Q82 709 135 709Q160 709 173 696T186 661V582H375Q490 582 551 526T613 366Q613 264 552 207T375 150H186V49Q186 -4 134 -4ZM186 233H361Q513 233 513 366Q513 499
361 499H186V233Z" />
<glyph unicode="&#xdf;" glyph-name="germandbls" horiz-adv-x="632" d="M418 -9Q375 -9 331 2T251 37Q234 48 231 63T234 92T255 111T286 106Q319 86 355 78T419 69Q463 69 487 87T512 137Q512 164 490 181T411 216Q331 241 299 273T267 354Q267 385 283 414T343
483Q372 509 383 529T395 573Q395 603 374 620T311 638Q243 638 208 598T172 484V44Q172 -7 121 -7Q71 -7 71 44V471Q71 587 133 650T311 714Q396 714 443 678T491 581Q491 545 475 515T419 449Q385 419 374 402T362 365Q362 341 384 324T465 288Q541 265 573 230T606
142Q606 74 555 33T418 -9Z" />
<glyph unicode="&#xe0;" glyph-name="agrave" horiz-adv-x="537" d="M227 -9Q176 -9 136 11T73 65T49 142Q49 196 76 227T167 272T339 286H373V312Q373 369 349 394T270 419Q238 419 204 411T132 384Q111 374 98 381T79 403T80 434T105 458Q149 478 192 487T273
497Q373 497 421 450T469 301V44Q469 -7 422 -7Q374 -7 374 44V81Q356 39 318 15T227 -9ZM247 63Q301 63 337 101T373 197V224H340Q267 224 226 217T167 194T149 148Q149 110 175 87T247 63ZM237 558L137 707Q126 724 131 739T152 763T185 769T212 746L292 589Q301
571 291 558T264 544T237 558Z" />
<glyph unicode="&#xe1;" glyph-name="aacute" horiz-adv-x="537" d="M227 -9Q176 -9 136 11T73 65T49 142Q49 196 76 227T167 272T339 286H373V312Q373 369 349 394T270 419Q238 419 204 411T132 384Q111 374 98 381T79 403T80 434T105 458Q149 478 192 487T273
497Q373 497 421 450T469 301V44Q469 -7 422 -7Q374 -7 374 44V81Q356 39 318 15T227 -9ZM247 63Q301 63 337 101T373 197V224H340Q267 224 226 217T167 194T149 148Q149 110 175 87T247 63ZM314 558Q304 542 287 543T260 558T258 589L339 746Q349 766 365 769T397
764T419 740T413 707L314 558Z" />
<glyph unicode="&#xe2;" glyph-name="acircumflex" horiz-adv-x="537" d="M227 -9Q176 -9 136 11T73 65T49 142Q49 196 76 227T167 272T339 286H373V312Q373 369 349 394T270 419Q238 419 204 411T132 384Q111 374 98 381T79 403T80 434T105 458Q149 478 192 487T273
497Q373 497 421 450T469 301V44Q469 -7 422 -7Q374 -7 374 44V81Q356 39 318 15T227 -9ZM247 63Q301 63 337 101T373 197V224H340Q267 224 226 217T167 194T149 148Q149 110 175 87T247 63ZM412 589Q421 571 412 558T386 544T360 558L275 693L190 558Q180 542
164 543T139 558T138 589L217 732Q237 769 275 769Q314 769 334 732L412 589Z" />
<glyph unicode="&#xe3;" glyph-name="atilde" horiz-adv-x="537" d="M227 -9Q176 -9 136 11T73 65T49 142Q49 196 76 227T167 272T339 286H373V312Q373 369 349 394T270 419Q238 419 204 411T132 384Q111 374 98 381T79 403T80 434T105 458Q149 478 192 487T273
497Q373 497 421 450T469 301V44Q469 -7 422 -7Q374 -7 374 44V81Q356 39 318 15T227 -9ZM247 63Q301 63 337 101T373 197V224H340Q267 224 226 217T167 194T149 148Q149 110 175 87T247 63ZM115 584Q103 585 96 593T92 617Q100 661 126 696T202 731Q226 731 245
720T280 695T312 670T347 659Q369 659 384 675T405 717Q409 738 435 737Q447 737 454 729T458 704Q450 660 424 626T348 591Q324 591 305 601T270 626T237 651T203 662Q181 662 166 647T145 604Q141 583 115 584Z" />
<glyph unicode="&#xe4;" glyph-name="adieresis" horiz-adv-x="537" d="M227 -9Q176 -9 136 11T73 65T49 142Q49 196 76 227T167 272T339 286H373V312Q373 369 349 394T270 419Q238 419 204 411T132 384Q111 374 98 381T79 403T80 434T105 458Q149 478 192 487T273
497Q373 497 421 450T469 301V44Q469 -7 422 -7Q374 -7 374 44V81Q356 39 318 15T227 -9ZM247 63Q301 63 337 101T373 197V224H340Q267 224 226 217T167 194T149 148Q149 110 175 87T247 63ZM366 600Q312 600 312 654Q312 706 366 706Q419 706 419 654Q419 600
366 600ZM185 600Q131 600 131 654Q131 679 145 692T185 706Q239 706 239 654Q239 600 185 600Z" />
<glyph unicode="&#xe5;" glyph-name="aring" horiz-adv-x="537" d="M227 -9Q176 -9 136 11T73 65T49 142Q49 196 76 227T167 272T339 286H373V312Q373 369 349 394T270 419Q238 419 204 411T132 384Q111 374 98 381T79 403T80 434T105 458Q149 478 192 487T273
497Q373 497 421 450T469 301V44Q469 -7 422 -7Q374 -7 374 44V81Q356 39 318 15T227 -9ZM247 63Q301 63 337 101T373 197V224H340Q267 224 226 217T167 194T149 148Q149 110 175 87T247 63ZM275 546Q223 546 188 581T153 666Q153 716 188 750T275 784Q327 784
362 750T397 666Q397 616 362 581T275 546ZM275 596Q305 596 324 616T344 666Q344 695 325 714T275 734Q245 734 226 715T206 666Q206 636 225 616T275 596Z" />
<glyph unicode="&#xe6;" glyph-name="ae" horiz-adv-x="863" d="M235 -9Q180 -9 138 11T73 65T49 142Q49 196 77 227T169 271T341 285H374V311Q374 368 350 393T272 419Q239 419 205 411T132 384Q112 374 99 381T80 403T81 434T106 458Q150 478 193 487T274 497Q398
497 439 412Q467 454 513 475T611 497Q710 497 767 433T825 256V253Q825 223 784 223H473Q483 69 629 69Q657 69 691 77T756 104Q777 116 792 113T814 96T817 66T794 37Q760 15 715 3T629 -9Q554 -9 499 20T415 107Q395 52 348 22T235 -9ZM612 426Q553 426 517
389T473 285H739Q736 352 704 389T612 426ZM248 63Q304 63 339 102T374 202V223H340Q267 223 226 217T167 194T149 148Q149 110 175 87T248 63Z" />
<glyph unicode="&#xe7;" glyph-name="ccedilla" horiz-adv-x="467" d="M286 -9Q211 -9 157 22T72 111T42 247Q42 363 108 430T286 497Q321 497 359 487T431 452Q447 442 449 427T445 398T423 380T391 385Q367 402 342 409T294 417Q223 417 185 373T146 246Q146
164 184 118T294 71Q317 71 341 78T391 102Q409 112 422 107T442 89T447 60T428 34Q396 11 359 1T286 -9ZM283 -194Q264 -194 244 -191T208 -182Q190 -175 188 -161T196 -136T224 -132Q246 -140 277 -140Q304 -140 319 -132T334 -107Q334 -81 296 -81Q288 -81 281
-81T264 -85Q249 -89 241 -83Q233 -77 236 -58L248 20H306L296 -41Q304 -40 311 -40Q350 -40 374 -58T398 -110Q398 -147 366 -170T283 -194Z" />
<glyph unicode="&#xe8;" glyph-name="egrave" horiz-adv-x="537" d="M300 -9Q180 -9 111 58T42 243Q42 318 72 375T157 465T281 497Q382 497 440 433T498 255Q498 221 458 221H140Q151 69 301 69Q331 69 364 76T428 104Q449 116 464 113T487 96T490 66T466 37Q432
14 387 3T300 -9ZM285 426Q222 426 185 387T140 283H413Q410 351 377 388T285 426ZM244 558L144 707Q133 724 138 739T159 763T192 769T219 746L299 589Q308 571 298 558T271 544T244 558Z" />
<glyph unicode="&#xe9;" glyph-name="eacute" horiz-adv-x="537" d="M300 -9Q180 -9 111 58T42 243Q42 318 72 375T157 465T281 497Q382 497 440 433T498 255Q498 221 458 221H140Q151 69 301 69Q331 69 364 76T428 104Q449 116 464 113T487 96T490 66T466 37Q432
14 387 3T300 -9ZM285 426Q222 426 185 387T140 283H413Q410 351 377 388T285 426ZM321 558Q311 542 294 543T267 558T265 589L346 746Q356 766 372 769T404 764T426 740T420 707L321 558Z" />
<glyph unicode="&#xea;" glyph-name="ecircumflex" horiz-adv-x="537" d="M300 -9Q180 -9 111 58T42 243Q42 318 72 375T157 465T281 497Q382 497 440 433T498 255Q498 221 458 221H140Q151 69 301 69Q331 69 364 76T428 104Q449 116 464 113T487 96T490 66T466
37Q432 14 387 3T300 -9ZM285 426Q222 426 185 387T140 283H413Q410 351 377 388T285 426ZM419 589Q428 571 419 558T393 544T367 558L282 693L197 558Q187 542 171 543T146 558T145 589L224 732Q244 769 282 769Q321 769 341 732L419 589Z" />
<glyph unicode="&#xeb;" glyph-name="edieresis" horiz-adv-x="537" d="M300 -9Q180 -9 111 58T42 243Q42 318 72 375T157 465T281 497Q382 497 440 433T498 255Q498 221 458 221H140Q151 69 301 69Q331 69 364 76T428 104Q449 116 464 113T487 96T490 66T466
37Q432 14 387 3T300 -9ZM285 426Q222 426 185 387T140 283H413Q410 351 377 388T285 426ZM373 600Q319 600 319 654Q319 706 373 706Q426 706 426 654Q426 600 373 600ZM192 600Q138 600 138 654Q138 679 152 692T192 706Q246 706 246 654Q246 600 192 600Z" />
<glyph unicode="&#xec;" glyph-name="igrave" horiz-adv-x="243" d="M121 -6Q71 -6 71 49V439Q71 493 121 493Q172 493 172 439V49Q172 -6 121 -6ZM83 558L-17 707Q-28 724 -23 739T-2 763T31 769T58 746L138 589Q147 571 137 558T110 544T83 558Z" />
<glyph unicode="&#xed;" glyph-name="iacute" horiz-adv-x="243" d="M121 -6Q71 -6 71 49V439Q71 493 121 493Q172 493 172 439V49Q172 -6 121 -6ZM160 558Q150 542 133 543T106 558T104 589L185 746Q195 766 211 769T243 764T265 740T259 707L160 558Z" />
<glyph unicode="&#xee;" glyph-name="icircumflex" horiz-adv-x="243" d="M121 -6Q71 -6 71 49V439Q71 493 121 493Q172 493 172 439V49Q172 -6 121 -6ZM258 589Q267 571 258 558T232 544T206 558L121 693L36 558Q26 542 10 543T-15 558T-16 589L63 732Q83 769
121 769Q160 769 180 732L258 589Z" />
<glyph unicode="&#xef;" glyph-name="idieresis" horiz-adv-x="243" d="M121 -6Q71 -6 71 49V439Q71 493 121 493Q172 493 172 439V49Q172 -6 121 -6ZM212 600Q158 600 158 654Q158 706 212 706Q265 706 265 654Q265 600 212 600ZM31 600Q-23 600 -23 654Q-23
679 -9 692T31 706Q85 706 85 654Q85 600 31 600Z" />
<glyph unicode="&#xf0;" glyph-name="eth" horiz-adv-x="569" d="M279 -9Q208 -9 155 20T72 101T42 222Q42 291 71 342T152 422T273 451Q322 451 360 435T424 383Q411 445 378 493T300 573L164 513Q146 504 132 509T113 526T112 551T138 574L230 614Q214 622 198
628T164 639Q144 645 137 658T132 684T149 704T184 707Q222 697 254 684T317 653L426 702Q444 710 458 705T477 689T479 664T455 642L381 609Q451 551 489 469T527 286Q527 144 463 68T279 -9ZM282 70Q346 70 383 111T420 222Q420 292 384 332T282 373Q218 373
181 333T144 222Q144 151 180 111T282 70Z" />
<glyph unicode="&#xf1;" glyph-name="ntilde" horiz-adv-x="576" d="M121 -7Q71 -7 71 44V444Q71 495 120 495Q169 495 169 444V407Q194 451 237 474T335 497Q508 497 508 301V44Q508 -7 458 -7Q407 -7 407 44V295Q407 358 383 387T306 416Q245 416 209 378T172
276V44Q172 -7 121 -7ZM129 584Q117 585 110 593T106 617Q114 661 140 696T216 731Q240 731 259 720T294 695T326 670T361 659Q383 659 398 675T419 717Q423 738 449 737Q461 737 468 729T472 704Q464 660 438 626T362 591Q338 591 319 601T284 626T251 651T217
662Q195 662 180 647T159 604Q155 583 129 584Z" />
<glyph unicode="&#xf2;" glyph-name="ograve" horiz-adv-x="565" d="M283 -9Q209 -9 155 22T72 109T42 244Q42 322 71 378T155 466T283 497Q355 497 409 466T493 379T523 244Q523 166 493 110T409 22T283 -9ZM283 69Q345 69 383 114T421 244Q421 329 383 373T283
418Q220 418 182 374T144 244Q144 159 182 114T283 69ZM245 558L145 707Q134 724 139 739T160 763T193 769T220 746L300 589Q309 571 299 558T272 544T245 558Z" />
<glyph unicode="&#xf3;" glyph-name="oacute" horiz-adv-x="565" d="M283 -9Q209 -9 155 22T72 109T42 244Q42 322 71 378T155 466T283 497Q355 497 409 466T493 379T523 244Q523 166 493 110T409 22T283 -9ZM283 69Q345 69 383 114T421 244Q421 329 383 373T283
418Q220 418 182 374T144 244Q144 159 182 114T283 69ZM322 558Q312 542 295 543T268 558T266 589L347 746Q357 766 373 769T405 764T427 740T421 707L322 558Z" />
<glyph unicode="&#xf4;" glyph-name="ocircumflex" horiz-adv-x="565" d="M283 -9Q209 -9 155 22T72 109T42 244Q42 322 71 378T155 466T283 497Q355 497 409 466T493 379T523 244Q523 166 493 110T409 22T283 -9ZM283 69Q345 69 383 114T421 244Q421 329 383
373T283 418Q220 418 182 374T144 244Q144 159 182 114T283 69ZM420 589Q429 571 420 558T394 544T368 558L283 693L198 558Q188 542 172 543T147 558T146 589L225 732Q245 769 283 769Q322 769 342 732L420 589Z" />
<glyph unicode="&#xf5;" glyph-name="otilde" horiz-adv-x="565" d="M283 -9Q209 -9 155 22T72 109T42 244Q42 322 71 378T155 466T283 497Q355 497 409 466T493 379T523 244Q523 166 493 110T409 22T283 -9ZM283 69Q345 69 383 114T421 244Q421 329 383 373T283
418Q220 418 182 374T144 244Q144 159 182 114T283 69ZM123 584Q111 585 104 593T100 617Q108 661 134 696T210 731Q234 731 253 720T288 695T320 670T355 659Q377 659 392 675T413 717Q417 738 443 737Q455 737 462 729T466 704Q458 660 432 626T356 591Q332 591
313 601T278 626T245 651T211 662Q189 662 174 647T153 604Q149 583 123 584Z" />
<glyph unicode="&#xf6;" glyph-name="odieresis" horiz-adv-x="565" d="M283 -9Q209 -9 155 22T72 109T42 244Q42 322 71 378T155 466T283 497Q355 497 409 466T493 379T523 244Q523 166 493 110T409 22T283 -9ZM283 69Q345 69 383 114T421 244Q421 329 383 373T283
418Q220 418 182 374T144 244Q144 159 182 114T283 69ZM374 600Q320 600 320 654Q320 706 374 706Q427 706 427 654Q427 600 374 600ZM193 600Q139 600 139 654Q139 679 153 692T193 706Q247 706 247 654Q247 600 193 600Z" />
<glyph unicode="&#xf7;" glyph-name="divide" horiz-adv-x="600" d="M294 436Q245 436 245 485Q245 534 294 534Q343 534 343 485Q343 436 294 436ZM87 250Q49 250 49 287Q49 324 87 324H513Q551 324 551 287Q551 250 513 250H87ZM294 40Q245 40 245 89Q245 138
294 138Q343 138 343 89Q343 40 294 40Z" />
<glyph unicode="&#xf8;" glyph-name="oslash" horiz-adv-x="565" d="M161 -32Q152 -46 139 -48T115 -44T99 -25T105 4L126 42Q86 74 64 126T42 244Q42 322 71 378T155 466T283 497Q337 497 381 479L405 520Q413 534 426 536T450 531T466 512T462 484L439 445Q479
412 501 361T523 244Q523 166 493 110T409 22T283 -9Q228 -9 184 8L161 -32ZM144 244Q144 169 175 124L339 407Q314 418 283 418Q220 418 182 374T144 244ZM283 69Q345 69 383 114T421 244Q421 318 391 363L226 80Q251 69 283 69Z" />
<glyph unicode="&#xf9;" glyph-name="ugrave" horiz-adv-x="569" d="M245 -9Q68 -9 68 188V444Q68 495 118 495Q169 495 169 444V187Q169 128 193 100T269 72Q326 72 361 110T397 212V444Q397 495 448 495Q498 495 498 444V44Q498 -7 449 -7Q400 -7 400 44V78Q376
35 336 13T245 -9ZM246 559L146 708Q135 725 140 740T161 764T194 770T221 747L301 590Q310 572 300 559T273 545T246 559Z" />
<glyph unicode="&#xfa;" glyph-name="uacute" horiz-adv-x="569" d="M245 -9Q68 -9 68 188V444Q68 495 118 495Q169 495 169 444V187Q169 128 193 100T269 72Q326 72 361 110T397 212V444Q397 495 448 495Q498 495 498 444V44Q498 -7 449 -7Q400 -7 400 44V78Q376
35 336 13T245 -9ZM323 559Q313 543 296 544T269 559T267 590L348 747Q358 767 374 770T406 765T428 741T422 708L323 559Z" />
<glyph unicode="&#xfb;" glyph-name="ucircumflex" horiz-adv-x="569" d="M245 -9Q68 -9 68 188V444Q68 495 118 495Q169 495 169 444V187Q169 128 193 100T269 72Q326 72 361 110T397 212V444Q397 495 448 495Q498 495 498 444V44Q498 -7 449 -7Q400 -7 400 44V78Q376
35 336 13T245 -9ZM421 590Q430 572 421 559T395 545T369 559L284 694L199 559Q189 543 173 544T148 559T147 590L226 733Q246 770 284 770Q323 770 343 733L421 590Z" />
<glyph unicode="&#xfc;" glyph-name="udieresis" horiz-adv-x="569" d="M245 -9Q68 -9 68 188V444Q68 495 118 495Q169 495 169 444V187Q169 128 193 100T269 72Q326 72 361 110T397 212V444Q397 495 448 495Q498 495 498 444V44Q498 -7 449 -7Q400 -7 400 44V78Q376
35 336 13T245 -9ZM375 601Q321 601 321 655Q321 707 375 707Q428 707 428 655Q428 601 375 601ZM194 601Q140 601 140 655Q140 680 154 693T194 707Q248 707 248 655Q248 601 194 601Z" />
<glyph unicode="&#xfd;" glyph-name="yacute" horiz-adv-x="520" d="M186 -187Q158 -187 148 -167T149 -119L208 13L30 426Q18 453 29 474T75 495Q93 495 104 486T125 455L262 117L401 455Q410 478 422 486T455 495Q482 495 492 474T491 427L241 -148Q231 -171
219 -179T186 -187ZM300 558Q290 542 273 543T246 558T244 589L325 746Q335 766 351 769T383 764T405 740T399 707L300 558Z" />
<glyph unicode="&#xfe;" glyph-name="thorn" horiz-adv-x="591" d="M121 -187Q71 -187 71 -136V661Q71 712 121 712Q172 712 172 661V409Q194 449 236 473T333 497Q398 497 446 466T521 379T548 244Q548 166 522 109T447 22T333 -9Q279 -9 237 14T172 79V-136Q172
-187 121 -187ZM308 69Q371 69 408 114T446 244Q446 329 409 373T308 418Q245 418 208 374T170 244Q170 159 207 114T308 69Z" />
<glyph unicode="&#xff;" glyph-name="ydieresis" horiz-adv-x="520" d="M186 -187Q158 -187 148 -167T149 -119L208 13L30 426Q18 453 29 474T75 495Q93 495 104 486T125 455L262 117L401 455Q410 478 422 486T455 495Q482 495 492 474T491 427L241 -148Q231 -171
219 -179T186 -187ZM352 600Q298 600 298 654Q298 706 352 706Q405 706 405 654Q405 600 352 600ZM171 600Q117 600 117 654Q117 679 131 692T171 706Q225 706 225 654Q225 600 171 600Z" />
<glyph unicode="&#x2013;" glyph-name="endash" horiz-adv-x="500" d="M27 235Q12 235 3 244T-7 267Q-7 281 2 289T27 298H474Q488 298 497 290T507 267Q507 254 498 245T474 235H27Z" />
<glyph unicode="&#x2014;" glyph-name="emdash" horiz-adv-x="1000" d="M27 235Q12 235 3 244T-7 267Q-7 281 2 289T27 298H974Q988 298 997 290T1007 267Q1007 254 998 245T974 235H27Z" />
<glyph unicode="&#x2018;" glyph-name="quoteleft" horiz-adv-x="237" d="M106 689Q121 708 137 706T160 689T151 655Q139 639 132 624T122 593Q149 591 166 574T183 529Q183 502 166 484T120 466Q89 466 72 486T55 545Q55 578 65 615T106 689Z" />
<glyph unicode="&#x2019;" glyph-name="quoteright" horiz-adv-x="237" d="M131 486Q116 467 100 469T77 486T87 521Q99 537 105 552T115 583Q88 585 72 602T55 646Q55 674 72 691T118 709Q148 709 165 689T183 631Q183 598 173 561T131 486Z" />
<glyph unicode="&#x201a;" glyph-name="quotesinglbase" horiz-adv-x="237" d="M131 -101Q116 -119 100 -117T77 -101T87 -65Q99 -50 105 -35T115 -4Q88 -2 72 15T55 60Q55 88 72 105T118 123Q148 123 165 103T183 44Q183 11 173 -26T131 -101Z" />
<glyph unicode="&#x201c;" glyph-name="quotedblleft" horiz-adv-x="416" d="M106 689Q121 708 137 706T160 689T151 655Q139 639 132 624T122 593Q149 591 166 574T183 529Q183 502 166 484T120 466Q89 466 72 486T55 545Q55 578 65 615T106 689ZM285 689Q300
708 316 706T339 689T330 655Q318 639 311 624T301 593Q328 591 345 574T362 529Q362 502 345 484T299 466Q268 466 251 486T234 545Q234 578 244 615T285 689Z" />
<glyph unicode="&#x201d;" glyph-name="quotedblright" horiz-adv-x="416" d="M131 486Q116 467 100 469T77 486T87 521Q99 537 105 552T115 583Q88 585 72 602T55 646Q55 674 72 691T118 709Q148 709 165 689T183 631Q183 598 173 561T131 486ZM310 486Q295 467
279 469T256 486T266 521Q278 537 284 552T294 583Q267 585 251 602T234 646Q234 674 251 691T297 709Q327 709 344 689T362 631Q362 598 352 561T310 486Z" />
<glyph unicode="&#x201e;" glyph-name="quotedblbase" horiz-adv-x="416" d="M131 -101Q116 -119 100 -117T77 -101T87 -65Q99 -50 105 -35T115 -4Q88 -2 72 15T55 60Q55 88 72 105T118 123Q148 123 165 103T183 44Q183 11 173 -26T131 -101ZM310 -101Q295 -119
279 -117T256 -101T266 -65Q278 -50 284 -35T294 -4Q267 -2 251 15T234 60Q234 88 251 105T297 123Q327 123 344 103T362 44Q362 11 352 -26T310 -101Z" />
<glyph unicode="&#x2022;" glyph-name="bullet" horiz-adv-x="524" d="M262 88Q213 88 172 111T106 175T81 265Q81 311 104 351T169 417T262 443Q310 443 351 420T418 357T443 265Q443 216 419 176T353 112T262 88Z" />
<glyph unicode="&#x2039;" glyph-name="guilsinglleft" horiz-adv-x="272" d="M196 86Q182 80 168 84T147 101L66 232Q46 265 66 299L145 429Q153 443 167 447T195 445Q210 438 215 422T212 388L153 266L212 143Q221 125 217 109T196 86Z" />
<glyph unicode="&#x203a;" glyph-name="guilsinglright" horiz-adv-x="272" d="M76 86Q61 93 56 109T60 143L120 266L60 388Q51 406 56 422T78 445Q92 451 106 447T128 429L206 299Q226 265 206 232L126 101Q119 88 105 84T76 86Z" />
</font>
</defs>
</svg>
